<?xml version="1.0" standalone="no"?>
<!DOCTYPE svg PUBLIC "-//W3C//DTD SVG 1.1//EN" "http://www.w3.org/Graphics/SVG/1.1/DTD/svg11.dtd" >
<svg xmlns="http://www.w3.org/2000/svg">
<metadata>
This is a custom SVG webfont generated by Font Squirrel.
Copyright   : Generated in 2009 by FontLab Studio Copyright info pending
</metadata>
<defs>
<font id="webfontbDMP4rcs" horiz-adv-x="724" >
<font-face units-per-em="2048" ascent="1505" descent="-543" />
<missing-glyph horiz-adv-x="315" />
<glyph unicode=" "  horiz-adv-x="315" />
<glyph unicode="&#x09;" horiz-adv-x="315" />
<glyph unicode="&#xa0;" horiz-adv-x="315" />
<glyph unicode="!" horiz-adv-x="387" d="M74 1505h239l-55 -1099h-129zM86 0v227h215v-227h-215z" />
<glyph unicode="&#x22;" horiz-adv-x="329" d="M57 1505h215l-30 -551h-154z" />
<glyph unicode="#" horiz-adv-x="1232" d="M49 438l27 195h198l37 258h-196l26 194h197l57 420h197l-57 -420h260l57 420h197l-58 -420h193l-27 -194h-192l-37 -258h190l-26 -195h-191l-59 -438h-197l60 438h-261l-59 -438h-197l60 438h-199zM471 633h260l37 258h-260z" />
<glyph unicode="$" horiz-adv-x="692" d="M37 358l192 13q12 -186 129 -187q88 0 93 185q0 29 -8.5 59.5t-19.5 55t-32.5 60.5t-34.5 53l-40 55q-28 38 -35 50q-68 92 -101 141.5t-70.5 141.5t-37.5 170q4 293 215 342v131h123v-125q201 -23 235 -282l-192 -25q-6 57 -28 92t-65 33q-80 -2 -84 -162 q0 -29 8.5 -60.5t18.5 -54t32.5 -59.5t34.5 -53l41 -59q30 -42 38 -52q6 -10 32 -48l37 -52q10 -14 33.5 -51t34.5 -58l26 -55q16 -35 23.5 -61.5t13.5 -60.5t6 -64q-4 -338 -245 -369v-217h-123v221q-236 41 -250 352z" />
<glyph unicode="%" horiz-adv-x="1001" d="M55 911v437q0 6 1 18t9.5 42t23.5 53.5t48 42t78 18.5q70 0 110 -44t44 -87l4 -43v-437q0 -6 -1 -18t-9.5 -43t-23.5 -53.5t-47 -42t-77 -19.5q-72 0 -112 44t-44 89zM158 0l553 1505h131l-547 -1505h-137zM178 911q-4 -55 37 -55q16 0 25.5 14.5t9.5 26.5v14v437 q2 55 -35 55q-18 0 -27.5 -13.5t-9.5 -27.5v-14v-437zM631 158v436q0 6 1 18.5t9 43t23.5 53t48 42t78.5 19.5q70 0 109.5 -44t43.5 -87l4 -45v-436q0 -6 -1 -18.5t-9 -42t-23.5 -53.5t-47 -42t-76.5 -18q-72 0 -112 43t-44 88zM754 158q-4 -57 37 -58q16 0 24 14.5t8 28.5 l2 15v436q2 55 -34 55q-18 0 -27.5 -13t-9.5 -28v-14v-436z" />
<glyph unicode="&#x26;" horiz-adv-x="854" d="M49 315q0 115 44 214.5t126 222.5q-106 225 -106 442v18q0 12 5 46t13 65t28.5 69t48.5 65.5t73 46t102 18.5q78 0 134 -34t80 -82t37 -96t13 -81v-35q0 -162 -205 -434q76 -174 148 -285q33 96 47 211l176 -33q-16 -213 -92 -358q55 -63 92 -76v-235q-23 0 -86 37.5 t-123 101.5q-123 -139 -252 -139t-216 97t-87 234zM262 326q2 -66 29.5 -108t70.5 -42q59 0 125 86q-88 139 -174 295q-6 -10 -14 -28.5t-22.5 -77.5t-14.5 -125zM305 1194q0 -111 55 -246q100 156 101 252q-2 2 0 15.5t-2 36t-11.5 43t-23.5 36t-41 15.5q-39 0 -58.5 -38 t-19.5 -75v-39z" />
<glyph unicode="'" horiz-adv-x="309" d="M45 1012l72 266h-72v227h215v-227l-113 -266h-102z" />
<glyph unicode="(" horiz-adv-x="561" d="M66 645q0 143 29.5 292.5t72.5 261.5t87 204t73 139l30 47l162 -84l-27.5 -40.5t-62.5 -114.5t-79 -182.5t-61.5 -238t-27.5 -284.5t26.5 -282.5t64.5 -240.5t76 -178t65 -118l26 -39l-162 -84q-12 18 -31.5 50t-69.5 133.5t-89 207t-70.5 257t-31.5 294.5z" />
<glyph unicode=")" horiz-adv-x="561" d="M41 -213q10 14 27.5 41t62.5 115t79 181t61.5 236.5t27.5 284.5t-26.5 282.5t-64.5 241t-76 179t-64 118.5l-27 39l162 84q12 -18 31.5 -50t69.5 -134t89 -206.5t71 -257.5t32 -296t-30 -292.5t-74 -261t-87 -203t-72 -138.5l-30 -47z" />
<glyph unicode="*" horiz-adv-x="677" d="M74 1251l43 148l164 -70l-19 176h154l-19 -176l164 70l43 -148l-172 -34l115 -138l-131 -80l-78 152l-76 -152l-131 80l115 138z" />
<glyph unicode="+" horiz-adv-x="1060" d="M74 649v172h370v346h172v-346h371v-172h-371v-346h-172v346h-370z" />
<glyph unicode="," horiz-adv-x="309" d="M45 0v227h215v-227l-113 -266h-102l72 266h-72z" />
<glyph unicode="-" horiz-adv-x="444" d="M74 455v194h297v-194h-297z" />
<glyph unicode="." horiz-adv-x="321" d="M53 0v227h215v-227h-215z" />
<glyph unicode="/" horiz-adv-x="720" d="M8 -147l543 1652h162l-537 -1652h-168z" />
<glyph unicode="0" d="M68 309v887q0 12 2 34.5t17 79t43 99.5t88.5 78t144 35t144 -34t88.5 -81t43 -95t17 -83l2 -33v-887q0 -12 -2 -34.5t-17 -79t-43 -99.5t-88.5 -77.5t-144 -34.5t-144 33.5t-88.5 80.5t-43 95.5t-17 80.5zM289 309q0 -12 1 -30.5t19.5 -49t53 -30.5t53 27.5t18.5 56.5 l2 26v887q0 12 -1 30.5t-19.5 49.5t-53 31t-53 -28t-18.5 -54l-2 -29v-887z" />
<glyph unicode="1" horiz-adv-x="475" d="M25 1180v141q82 16 140 62.5t77 82.5l18 39h133v-1505h-221v1180h-147z" />
<glyph unicode="2" horiz-adv-x="731" d="M55 0v219l39 62q25 39 88.5 152.5t112.5 220t91 241.5t44 238q0 184 -73.5 184t-73.5 -184v-105h-222v105q0 389 295 389t295 -375q0 -336 -346 -928h350v-219h-600z" />
<glyph unicode="3" horiz-adv-x="686" d="M45 1071q0 70 2 115t17.5 115.5t44 112.5t84 75t135.5 33q78 0 135 -31t84.5 -71t44 -92t19.5 -79.5t3 -50.5q0 -291 -106 -397l-2 -2q127 -100 127 -414q0 -25 -3 -58.5t-19.5 -99t-44 -116t-85 -89t-135.5 -38.5q-80 0 -136 31.5t-86 75.5t-47.5 112.5t-20.5 118 t-3 112.5h217q2 -150 17.5 -203t58.5 -53q45 0 57.5 50.5t12.5 140.5q0 18 1 66t0 62.5t-4 49.5t-10 46l-18 33q-12 22 -29.5 29t-45 15t-62.5 10h-19v184q37 2 62.5 7.5t45 14.5t31 21.5t17.5 29.5t9 39.5t3 51.5v62v43q0 45 -1 68.5t-7 58t-21.5 51t-39.5 16.5 q-41 0 -52.5 -49t-13.5 -207h-217z" />
<glyph unicode="4" horiz-adv-x="684" d="M25 328v194l323 983h221v-983h103v-194h-103v-328h-202v328h-342zM213 522h154v471v45h-13l-12 -45z" />
<glyph unicode="5" horiz-adv-x="704" d="M74 438h221v-59q0 -115 14.5 -159t52.5 -44q37 0 52.5 45t15.5 156v336q0 111 -70 110q-33 0 -59.5 -40t-26.5 -70h-186v792h535v-219h-344v-313q8 6 21 15t47 23.5t59 12.5q78 0 133 -40t76.5 -99.5t28.5 -100.5t7 -71v-336q0 -393 -289 -393q-78 0 -133 29.5 t-84.5 71.5t-46 108.5t-20.5 118.5t-4 126z" />
<glyph unicode="6" horiz-adv-x="700" d="M66 309v856q0 356 288.5 356.5t288.5 -356.5v-94h-221q0 162 -11.5 210t-56.5 48q-39 0 -53 -37t-14 -127v-268q59 37 110 37q80 0 133.5 -36t76 -93t29.5 -101.5t7 -87.5v-307q0 -41 -8 -84t-34 -103.5t-89 -99t-157.5 -38.5t-158 38.5t-89 99t-33.5 103.5t-8 84z M287 244q0 -20 17.5 -44t49.5 -24q31 0 49.5 24.5t18.5 43.5v450q0 18 -18.5 43t-49 25t-48 -20.5t-19.5 -41.5v-456z" />
<glyph unicode="7" horiz-adv-x="589" d="M8 1286v219h557v-221l-221 -1284h-229l225 1286h-332z" />
<glyph unicode="8" horiz-adv-x="696" d="M53 322v176q0 188 115 297q-102 102 -102 276v127q0 23 2 49.5t18 79.5t43 93t84 71t135 31t135.5 -31t84 -71t43 -93t18.5 -79.5t2 -49.5v-127q0 -174 -103 -276q115 -109 115 -297v-176q0 -25 -2 -52.5t-18.5 -83t-45 -96.5t-88 -73.5t-141.5 -32.5t-141.5 32.5 t-88 73.5t-45 96.5t-18.5 83t-2 52.5zM268 410q2 -127 17.5 -175.5t62.5 -48.5q37 0 54.5 30t21.5 71t4 123q0 152 -13.5 209t-66.5 57t-66.5 -57t-13.5 -209zM283 1120q0 -127 12 -177t53 -50t53.5 50t12.5 177q0 113 -12.5 160t-53.5 47q-37 0 -50 -44t-15 -163z" />
<glyph unicode="9" horiz-adv-x="700" d="M57 340v94h222q0 -162 11 -210t56 -48q39 0 53.5 37t14.5 127v283q-59 -37 -111 -37q-80 0 -133 35.5t-75.5 93t-30 101.5t-7.5 87v293q0 41 8.5 84t34 103.5t89 99.5t157.5 39t157.5 -39t89 -99.5t34 -103.5t8.5 -84v-856q0 -356 -289 -356t-289 356zM279 825 q0 -18 18 -42.5t49 -24.5t48.5 20.5t19.5 40.5v443q0 20 -17.5 43.5t-50.5 23.5q-31 0 -49 -24.5t-18 -42.5v-437z" />
<glyph unicode=":" horiz-adv-x="362" d="M74 0v227h215v-227h-215zM74 893v227h215v-227h-215z" />
<glyph unicode=";" horiz-adv-x="362" d="M74 0v227h215v-227l-113 -266h-102l71 266h-71zM74 893v227h215v-227h-215z" />
<glyph unicode="&#x3c;" horiz-adv-x="1058" d="M74 649v160l911 475v-199l-698 -356l698 -356v-199z" />
<glyph unicode="=" horiz-adv-x="1058" d="M74 477v172h911v-172h-911zM74 864v172h911v-172h-911z" />
<glyph unicode="&#x3e;" horiz-adv-x="1058" d="M74 174v199l698 356l-698 356v199l911 -475v-160z" />
<glyph unicode="?" horiz-adv-x="645" d="M25 1260q12 33 33.5 68.5t59.5 81.5t96 76t124 27q82 -2 138 -33.5t82 -81.5t36 -91t10 -80q0 -82 -80 -219l-57 -96q-18 -32 -42 -106.5t-24 -143.5v-256h-190v256q0 102 24.5 195t48 140t64.5 117q43 72 53 113q6 27 -11 60.5t-56 33.5q-47 2 -82 -47t-49 -98zM199 0 h215v227h-215v-227z" />
<glyph unicode="@" horiz-adv-x="872" d="M66 303v889q0 43 17 94t56 106.5t117 92.5t184.5 37t184 -37t116.5 -92.5t56.5 -106.5t17.5 -94v-793h-164l-20 56q-4 -8 -11.5 -19.5t-37 -30t-64.5 -18.5q-145 0 -145 172v485q0 170 145 170q35 0 63.5 -17t39.5 -34l10 -16v45q0 51 -45 104.5t-145.5 53.5 t-145.5 -53.5t-45 -104.5v-889q0 -53 44 -103t146 -50q117 0 168 63l152 -86q-109 -143 -320 -143q-106 0 -184 35.5t-117 90t-56 103.5t-17 90zM535 573q0 -53 47 -53q49 0 49 53v455q0 53 -49 53q-47 0 -47 -53v-455z" />
<glyph unicode="A" horiz-adv-x="765" d="M20 0l228 1505h270l227 -1505h-215l-41 307h-213l-40 -307h-216zM307 541h152l-64 475l-6 39h-12l-6 -39z" />
<glyph unicode="B" horiz-adv-x="745" d="M82 0v1505h194q205 0 304.5 -91t99.5 -308q0 -106 -29.5 -175t-107.5 -136q6 -2 16 -9.5t37 -35t47.5 -65.5t36.5 -106.5t16 -152.5q0 -414 -342 -426h-272zM303 219q74 0 109 31q55 55 55 201q0 82 -16.5 134t-46 70.5t-48 22.5t-45.5 4h-8v-463zM303 885q23 0 34 1 t40 10t45 28.5t30.5 60.5t14.5 100.5t-14.5 100.5t-30.5 60.5t-45 28.5t-40 10t-34 1v-401z" />
<glyph unicode="C" horiz-adv-x="708" d="M68 309v887q0 12 2 34.5t17 79t43 99.5t88.5 78t144 35t144 -34t88.5 -81t43 -95t17 -83l2 -33v-207h-206v207q-2 0 0 11.5t-3.5 27.5t-12.5 32.5t-24.5 28t-43.5 11.5q-35 0 -54.5 -28t-21.5 -54l-2 -29v-887q0 -12 2 -30.5t21.5 -49t54.5 -30.5q41 0 62.5 27.5 t21.5 56.5v26v207h206v-207q0 -12 -2 -34.5t-17 -79t-43 -99.5t-88.5 -77.5t-144 -34.5t-144 33.5t-88.5 80.5t-43 95.5t-17 80.5z" />
<glyph unicode="D" horiz-adv-x="761" d="M82 0v1505h174q90 0 153.5 -12t112.5 -33.5t80 -67.5t50.5 -95.5t28.5 -139.5t12 -177t3 -228.5t-3 -228.5t-12 -176t-28.5 -138t-50.5 -95t-80 -67.5t-112.5 -34t-153.5 -12.5h-174zM303 221q94 0 123 41q39 55 41 320v172v52q0 330 -25 402q-23 66 -92 74q-18 2 -47 2 v-1063z" />
<glyph unicode="E" horiz-adv-x="628" d="M82 0v1505h506v-227h-285v-395h205v-242h-205v-414h285v-227h-506z" />
<glyph unicode="F" horiz-adv-x="616" d="M82 0v1505h526v-227h-305v-395h205v-228h-205v-655h-221z" />
<glyph unicode="G" horiz-adv-x="737" d="M68 274v35v887q0 12 2 34.5t17 79t43 99.5t88.5 78t144 35t144 -34t88.5 -81t43 -95t17 -83l2 -33v-231h-221v231q0 12 -1 30.5t-19.5 49.5t-53 31t-53 -28t-18.5 -54l-2 -29v-905q0 -12 1 -30.5t19.5 -49.5t53 -31t53 28t18.5 54l2 29v272h-88v187h309v-750h-131l-26 72 q-70 -88 -172 -88q-78 0 -134.5 33.5t-80 80.5t-34.5 95t-11 81z" />
<glyph unicode="H" horiz-adv-x="778" d="M82 0v1505h221v-622h172v622h221v-1505h-221v655h-172v-655h-221z" />
<glyph unicode="I" horiz-adv-x="385" d="M82 0v1505h221v-1505h-221z" />
<glyph unicode="J" horiz-adv-x="423" d="M12 -14v217q4 0 12.5 -1t29 2t35.5 12t28.5 34.5t13.5 62.5v1192h221v-1226q0 -137 -79 -221q-70 -74 -222 -73q-19 0 -39 1z" />
<glyph unicode="K" horiz-adv-x="768" d="M82 0v1505h221v-501v-25h8l11 25l184 501h215l-203 -495l230 -1010h-216l-153 655l-6 31h-6l-13 -31l-51 -123v-532h-221z" />
<glyph unicode="L" horiz-adv-x="604" d="M82 0v1505h221v-1300h293v-205h-514z" />
<glyph unicode="M" horiz-adv-x="991" d="M82 0v1505h270l131 -688l11 -80h4l10 80l131 688h270v-1505h-204v946v64h-13l-8 -64l-141 -946h-94l-142 946l-8 64h-12v-64v-946h-205z" />
<glyph unicode="N" horiz-adv-x="808" d="M82 0v1505h197l215 -784l18 -70h12v70v784h203v-1505h-197l-215 784l-18 70h-12v-70v-784h-203z" />
<glyph unicode="O" d="M68 309v887q0 12 2 34.5t17 79t43 99.5t88.5 78t144 35t144 -34t88.5 -81t43 -95t17 -83l2 -33v-887q0 -12 -2 -34.5t-17 -79t-43 -99.5t-88.5 -77.5t-144 -34.5t-144 33.5t-88.5 80.5t-43 95.5t-17 80.5zM289 309q0 -12 1 -30.5t19.5 -49t53 -30.5t53 27.5t18.5 56.5 l2 26v887q0 12 -1 30.5t-19.5 49.5t-53 31t-53 -28t-18.5 -54l-2 -29v-887z" />
<glyph unicode="P" horiz-adv-x="720" d="M82 0v1505h221q166 0 277.5 -105.5t111.5 -345t-111.5 -346t-277.5 -106.5v-602h-221zM303 827q102 0 134 45.5t32 174.5q0 131 -33 182t-133 51v-453z" />
<glyph unicode="Q" horiz-adv-x="729" d="M68 309v887q0 12 2 34.5t17 79t43 99.5t88.5 78t144 35t144 -34t88.5 -81t43 -95t17 -83l2 -33v-887q0 -94 -45 -182q33 -43 88 -53v-189q-160 0 -227 117q-55 -18 -111 -18q-84 0 -144 33.5t-88 80.5t-43 95.5t-17 80.5zM289 309q0 -12 1 -30.5t19.5 -49t53 -30.5 t53 27.5t18.5 56.5l2 26v887q0 12 -1 30.5t-19.5 49.5t-53 31t-53 -28t-18.5 -54l-2 -29v-887z" />
<glyph unicode="R" horiz-adv-x="739" d="M82 0v1505h221q377 0 377 -434q0 -258 -123 -342l141 -729h-221l-115 635h-59v-635h-221zM303 840q31 0 52.5 5t51 24.5t45 68.5t15.5 125t-15.5 125t-45 68.5t-51 24.5t-52.5 5v-446z" />
<glyph unicode="S" horiz-adv-x="702" d="M37 422l217 20q0 -256 104 -256q90 0 91 166q0 29 -8.5 59.5t-32 73.5t-36.5 64l-54 79q-40 58 -48 72q-66 96 -102.5 158t-68 149t-31.5 162q0 139 71.5 245t216.5 108h10q88 0 150 -35q66 -37 95.5 -101.5t42 -127t12.5 -136.5l-217 -20q0 217 -89 217q-76 -2 -75 -150 q0 -18 4 -39.5t10 -39t18.5 -43t20.5 -40t28 -43.5l28 -43l33 -48l32 -46l104 -159q31 -49 67 -139.5t36 -166.5q0 -379 -308 -378q-82 0 -142 25.5t-94 63.5t-53.5 99t-25.5 117.5t-6 132.5z" />
<glyph unicode="T" horiz-adv-x="647" d="M4 1278v227h639v-227h-209v-1278h-221v1278h-209z" />
<glyph unicode="U" horiz-adv-x="749" d="M80 309v1196h221v-1196q0 -12 1 -30.5t19.5 -49t53.5 -30.5t53 27.5t18 56.5l3 26v1196h221v-1196q0 -12 -2 -34.5t-17.5 -79t-43 -99.5t-88 -77.5t-144.5 -34.5t-144.5 33.5t-88 80.5t-43 95.5t-17.5 80.5z" />
<glyph unicode="V" horiz-adv-x="716" d="M18 1505h215l111 -827l8 -64h13l8 64l110 827h215l-229 -1505h-221z" />
<glyph unicode="W" horiz-adv-x="1036" d="M25 1505h204l88 -782l5 -49h16l6 49l94 782h160l94 -782l6 -49h17l4 49l88 782h205l-203 -1505h-172l-102 713l-13 88h-8l-12 -88l-103 -713h-172z" />
<glyph unicode="X" horiz-adv-x="737" d="M16 0l244 791l-240 714h218l120 -381l7 -18h8l6 18l121 381h217l-240 -714l244 -791h-217l-127 449l-4 18h-8l-5 -18l-127 -449h-217z" />
<glyph unicode="Y" horiz-adv-x="700" d="M14 1505h217l111 -481l6 -14h4l6 14l111 481h217l-225 -864v-641h-221v641z" />
<glyph unicode="Z" horiz-adv-x="626" d="M20 0v238l347 1048h-297v219h536v-219l-352 -1067h352v-219h-586z" />
<glyph unicode="[" horiz-adv-x="538" d="M82 -16v1521h399v-196h-202v-1325h202v-197h-399v197z" />
<glyph unicode="\" horiz-adv-x="792" d="M8 1692h162l614 -1872h-168z" />
<glyph unicode="]" horiz-adv-x="538" d="M57 -16h203v1325h-203v196h400v-1521v-197h-400v197z" />
<glyph unicode="^" horiz-adv-x="1101" d="M53 809l381 696h234l381 -696h-199l-299 543l-299 -543h-199z" />
<glyph unicode="_" horiz-adv-x="1210" d="M74 -154h1063v-172h-1063v172z" />
<glyph unicode="`" horiz-adv-x="1024" d="M293 1489h215l106 -184h-159z" />
<glyph unicode="a" horiz-adv-x="681" d="M49 260q0 106 34 187t83 124t98 73t88 50.5t43 36.5v37v86q0 102 -57 102q-20 0 -32.5 -9t-17.5 -32.5t-7 -37t-2 -47.5v-39h-207v47q0 123 80.5 211t197.5 88q102 0 177 -74t75 -180v-351v-337q0 -109 14 -195h-202q-18 20 -19 90h-14q-20 -37 -65.5 -71.5t-100.5 -34.5 q-59 0 -112.5 60t-53.5 216zM252 291q0 -104 57 -105q35 0 60.5 19.5t25.5 48.5v287q-143 -62 -143 -250z" />
<glyph unicode="b" horiz-adv-x="686" d="M82 0v1505h207v-458q88 90 164 90q78 0 118.5 -69t40.5 -150v-715q0 -82 -41 -150.5t-118 -68.5q-33 0 -74 22.5t-66 44.5l-24 23v-74h-207zM289 246q0 -29 19.5 -48.5t42 -19.5t39 19.5t16.5 48.5v628q0 29 -16.5 48.5t-39 19.5t-42 -21.5t-19.5 -46.5v-628z" />
<glyph unicode="c" horiz-adv-x="645" d="M66 315v490q0 332 264 332q137 0 201.5 -71t64.5 -251v-88h-207v135q0 51 -12 70.5t-47 19.5q-57 0 -58 -90v-604q0 -90 58 -90q35 0 47 19.5t12 70.5v156h207v-109q0 -180 -64.5 -250.5t-201.5 -70.5q-264 -1 -264 331z" />
<glyph unicode="d" horiz-adv-x="686" d="M74 203v715q0 82 41 150.5t118 68.5q33 0 74 -22.5t66 -45.5l24 -22v458h207v-1505h-207v74q-88 -90 -164 -90q-78 0 -118.5 68.5t-40.5 150.5zM281 246q0 -29 16 -48.5t38.5 -19.5t42 19.5t19.5 48.5v628q0 25 -19.5 46.5t-42 21.5t-38.5 -19.5t-16 -48.5v-628z" />
<glyph unicode="e" horiz-adv-x="659" d="M66 279v563q0 12 2 31.5t16 70.5t40 90t81 71t129 32q76 0 130 -30t79.5 -73t40 -85t14.5 -72l2 -29v-326h-342v-243v-13q0 -8 4 -27.5t11.5 -34t23.5 -26.5t37 -12q35 0 53.5 27.5t18.5 56.5l2 29v122h192v-129q0 -12 -2 -31.5t-16.5 -68.5t-39 -88t-79.5 -69.5 t-131 -30.5q-74 0 -129.5 30.5t-80 73.5t-38.5 86t-16 74zM258 684h150v158q0 12 -1 31.5t-19.5 51t-53.5 31.5q-33 0 -52.5 -28.5t-21.5 -57.5l-2 -28v-158z" />
<glyph unicode="f" horiz-adv-x="475" d="M20 934v186h105v17v14q0 51 2 84t14.5 92t35 94t70.5 63.5t115 28.5q29 0 53.5 -3t35.5 -7l8 -4v-178q-27 8 -62 8q-66 0 -65 -180v-16v-13h104v-186h-104v-934h-207v934h-105z" />
<glyph unicode="g" horiz-adv-x="700" d="M12 -184q0 94 162 170q-125 35 -125 149q0 45 40 93t89 75q-51 35 -80.5 95.5t-34.5 105.5l-4 43v305q0 12 2 30.5t16.5 67.5t39 87t79 69t126.5 31q135 0 206 -103q102 102 170 103v-185q-72 0 -120 -24l10 -70v-317q0 -10 -2 -29.5t-17.5 -67t-40 -84t-79 -66.5 t-127.5 -30q-27 0 -39 2q-29 -25 -29 -51q0 -16 11 -28.5t42 -20.5t45.5 -10t59.5 -11q57 -8 101 -21t89 -41t70.5 -78t25.5 -120q0 -152 -103 -219t-251 -67q-164 4 -248 52t-84 165zM213 -150q0 -78 135 -77q59 0 108.5 19.5t49.5 55.5q0 33 -20.5 50.5t-90.5 29.5 l-106 21q-76 -44 -76 -99zM262 509q0 -17 15.5 -45t44.5 -28q31 0 47 25.5t16 50.5v25v307q-1 1 -1 3.5t1 7.5t1 6q0 8 -3 19q-4 15 -9 30.5t-18.5 25.5t-33.5 10q-29 0 -44.5 -25.5t-15.5 -52.5v-24v-307v-28z" />
<glyph unicode="h" horiz-adv-x="690" d="M82 0v1505h207v-479l32 32q30 30 66.5 54.5t69.5 24.5q76 0 115.5 -69t39.5 -150v-918h-206v887q0 49 -50 49q-18 0 -34.5 -13.5t-24.5 -25.5l-8 -14v-883h-207z" />
<glyph unicode="i" horiz-adv-x="370" d="M82 0v1120h207v-1120h-207zM82 1298v207h207v-207h-207z" />
<glyph unicode="j" horiz-adv-x="364" d="M-45 -182q29 -8 57 -8q64 0 64 142v10.5v10.5v1147h207v-1149q0 -51 -2 -83.5t-14.5 -90t-35 -92.5t-70.5 -62.5t-116 -27.5q-29 0 -51.5 3t-30.5 5l-8 4v191zM76 1298v207h207v-207h-207z" />
<glyph unicode="k" horiz-adv-x="641" d="M82 0v1505h207v-678v-36h10l12 36l101 293h186l-149 -364l188 -756h-199l-102 453l-4 16h-10l-7 -16l-26 -66v-387h-207z" />
<glyph unicode="l" horiz-adv-x="370" d="M82 0v1505h207v-1505h-207z" />
<glyph unicode="m" horiz-adv-x="1021" d="M82 0v1120h207v-94q2 0 32.5 30.5t68.5 55.5t71 25q100 0 139 -125l43 41t76 60.5t69 23.5q76 0 116 -69t40 -150v-918h-194v887q0 49 -56 49q-18 0 -37.5 -13.5t-29.5 -25.5l-11 -14v-883h-194v887q0 49 -55 49q-18 0 -38 -13.5t-30 -25.5l-10 -14v-883h-207z" />
<glyph unicode="n" horiz-adv-x="690" d="M82 0v1120h207v-94l32 32q30 30 66.5 54.5t69.5 24.5q76 0 115.5 -69t39.5 -150v-918h-206v887q0 49 -50 49q-18 0 -34.5 -13.5t-24.5 -25.5l-8 -14v-883h-207z" />
<glyph unicode="o" horiz-adv-x="657" d="M63 279v563q0 12 1.5 31.5t15.5 70.5t38.5 90t80 71t129.5 32q76 0 130 -30t79.5 -73t40 -85t16.5 -72v-29v-576q0 -12 -1 -31.5t-15.5 -68.5t-40 -88t-80 -69.5t-129.5 -30.5q-74 0 -129.5 30.5t-80 73.5t-38.5 86t-14 74zM257 259q0 -9 3 -20q4 -17 10 -34t21.5 -28 t36.5 -11q35 0 52 27.5t17 56.5l2 29v563q-2 0 0 11q1 4 1 8q0 9 -3 21q-4 17 -10 33.5t-21.5 28.5t-37.5 12q-33 0 -50.5 -28.5t-19.5 -57.5v-28v-563q1 -1 1 -4t-1 -9t-1 -7z" />
<glyph unicode="p" horiz-adv-x="686" d="M82 -385v1505h207v-73q88 90 164 90q78 0 118.5 -69t40.5 -150v-715q0 -82 -41 -150.5t-118 -68.5q-33 0 -74 22.5t-66 44.5l-24 23v-459h-207zM289 246q0 -25 19.5 -46.5t42 -21.5t39 19.5t16.5 48.5v628q0 29 -16.5 48.5t-39 19.5t-42 -19.5t-19.5 -48.5v-628z" />
<glyph unicode="q" horiz-adv-x="686" d="M74 203v715q0 82 41 150.5t118 68.5q33 0 74 -22.5t66 -45.5l24 -22v73h207v-1505h-207v459q-88 -90 -164 -90q-78 0 -118.5 68.5t-40.5 150.5zM281 246q0 -29 16 -48.5t38.5 -19.5t42 21.5t19.5 46.5v628q0 29 -19.5 48.5t-42 19.5t-38.5 -19.5t-16 -48.5v-628z" />
<glyph unicode="r" horiz-adv-x="503" d="M82 0v1120h207v-125q8 41 58 91.5t149 50.5v-230q-34 11 -64 11q-56 0 -98 -37q-45 -41 -45 -103v-778h-207z" />
<glyph unicode="s" horiz-adv-x="630" d="M37 326h192q0 -170 97 -170q72 0 71 135q0 74 -129 198q-68 66 -98.5 99t-64 101.5t-33.5 144.5q0 55 12 104t39 95t78 74t123 30h11q78 0 131 -26q56 -28 80.5 -79t33 -95t8.5 -103h-193q0 131 -67 131q-63 -2 -64 -131q0 -33 23.5 -73t45 -62.5t66.5 -65.5 q190 -182 191 -342q0 -123 -64.5 -215t-199.5 -92q-72 0 -126.5 24.5t-85 60t-49 85t-23.5 89.5t-5 83z" />
<glyph unicode="t" horiz-adv-x="501" d="M20 934v186h105v277h207v-277h141v-186h-141v-557q0 -184 65 -184l76 8v-203q-45 -14 -111 -14q-68 0 -115.5 28.5t-70 64.5t-35 96t-14.5 95t-2 92v574h-105z" />
<glyph unicode="u" horiz-adv-x="690" d="M78 203v917h207v-887q0 -49 49 -49q18 0 34.5 13.5t24.5 27.5l8 13v882h207v-1120h-207v94l-31 -32q-30 -30 -67 -54t-70 -24q-76 0 -115.5 68.5t-39.5 150.5z" />
<glyph unicode="v" horiz-adv-x="602" d="M16 1120h201l68 -649l8 -72h16l8 72l68 649h201l-183 -1120h-204z" />
<glyph unicode="w" horiz-adv-x="905" d="M20 1120h189l65 -585l9 -64h12l10 64l86 585h123l86 -585l10 -64h13l8 64l65 585h189l-166 -1120h-172l-80 535l-10 63h-8l-11 -63l-80 -535h-172z" />
<glyph unicode="x" horiz-adv-x="618" d="M16 0l193 578l-176 542h194l74 -262l6 -31h4l6 31l74 262h195l-176 -542l192 -578h-201l-84 283l-6 30h-4l-6 -30l-84 -283h-201z" />
<glyph unicode="y" horiz-adv-x="634" d="M25 1120h202l82 -688l4 -57h9l4 57l82 688h202l-198 -1204q-16 -127 -94 -222t-193 -95l-92 4v184q16 -4 49 -4q61 6 97 61.5t36 122.5z" />
<glyph unicode="z" horiz-adv-x="532" d="M12 0v168l285 764h-240v188h459v-168l-285 -764h285v-188h-504z" />
<glyph unicode="{" horiz-adv-x="688" d="M61 453v163q72 0 102 49.5t30 90.5v397q0 223 96 298t342 71v-172q-135 2 -188.5 -38t-53.5 -159v-397q0 -143 -127 -221q127 -82 127 -222v-397q0 -119 53.5 -159t188.5 -38v-172q-246 -4 -342 71t-96 298v397q0 20 -8.5 47t-41.5 59t-82 34z" />
<glyph unicode="|" horiz-adv-x="356" d="M82 -512v2204h192v-2204h-192z" />
<glyph unicode="}" horiz-adv-x="688" d="M57 -281q135 -2 188.5 38t53.5 159v397q0 139 127 222q-127 78 -127 221v397q0 119 -53 159t-189 38v172q246 4 342.5 -71t96.5 -298v-397q0 -23 8 -50.5t41 -58.5t82 -31v-163q-72 -4 -101.5 -52.5t-29.5 -87.5v-397q0 -223 -96.5 -298t-342.5 -71v172z" />
<glyph unicode="~" horiz-adv-x="1280" d="M113 1352q4 12 12 32.5t38 73.5t64.5 94t95 74t126.5 33q55 0 111 -18.5t82 -33t83 -51.5q106 -72 174 -71q57 0 105.5 46t66.5 91l19 45l135 -57q-4 -12 -12.5 -34t-38 -75t-64.5 -93t-91 -74t-120 -34q-121 0 -272 101q-115 74 -178.5 74t-113.5 -45.5t-69 -90.5 l-18 -45z" />
<glyph unicode="&#xa1;" horiz-adv-x="387" d="M74 -385l55 1100h129l55 -1100h-239zM86 893v227h215v-227h-215z" />
<glyph unicode="&#xa2;" horiz-adv-x="636" d="M66 508v489q0 297 208 328v242h123v-244q98 -16 144.5 -88t46.5 -227v-88h-189v135q0 90 -73 90q-72 0 -72 -90v-604q0 -90 72 -91q74 0 73 91v155h189v-108q0 -156 -46 -228.5t-145 -89.5v-303h-123v301q-208 31 -208 330z" />
<glyph unicode="&#xa3;" horiz-adv-x="817" d="M4 63q8 20 23.5 53.5t70 91.5t117.5 68q37 111 37 199q0 68 -31 174h-188v137h147l-6 21q-78 254 -78 342q0 70 15.5 131t48.5 116.5t92 89.5t139 36q96 2 164 -32t103.5 -93.5t50 -127t14.5 -149.5h-213q0 86 -25.5 142.5t-89.5 54.5q-47 -2 -68.5 -51t-21.5 -117 q0 -113 70 -338l6 -25h211v-137h-174q25 -100 24 -174q0 -104 -57 -219q16 -8 44 -24.5t48.5 -25.5t40.5 -9q74 4 82 190l188 -22q-12 -182 -81.5 -281.5t-169.5 -99.5q-51 0 -143.5 51t-129.5 51q-33 0 -61.5 -25.5t-40.5 -52.5l-12 -24z" />
<glyph unicode="&#xa5;" horiz-adv-x="720" d="M25 1505h217l110 -481l6 -14h4l7 14l110 481h217l-196 -753h147v-138h-176v-137h176v-137h-176v-340h-221v340h-176v137h176v137h-176v138h147z" />
<glyph unicode="&#xa8;" horiz-adv-x="1024" d="M272 1305v200h191v-200h-191zM561 1305v200h191v-200h-191z" />
<glyph unicode="&#xa9;" horiz-adv-x="1644" d="M53 751.5q0 317.5 225.5 544t543 226.5t543.5 -226.5t226 -544t-226 -542.5t-543.5 -225t-543 225t-225.5 542.5zM172 751.5q0 -266.5 191.5 -458t457.5 -191.5t459 191.5t193 458.5q0 268 -191.5 459.5t-460.5 191.5q-266 0 -457.5 -192.5t-191.5 -459zM627 487v531 q0 8 1 21.5t11 47t27.5 59t57.5 47t95 21.5q53 0 92 -20t56.5 -49t28 -57.5t12.5 -49.5v-20v-125h-138v125v17q0 11 -12 28.5t-37 17.5q-23 0 -35 -16t-12 -33l-2 -14v-531q0 -63 49 -63q25 0 37 15.5t12 31.5v16v125h138v-125q0 -8 -1 -21t-11.5 -47t-28 -59.5t-56.5 -47 t-92 -21.5q-86 0 -134 49t-54 98z" />
<glyph unicode="&#xad;" horiz-adv-x="444" d="M74 455v194h297v-194h-297z" />
<glyph unicode="&#xae;" horiz-adv-x="1644" d="M53 751.5q0 317.5 225.5 544t543 226.5t543.5 -226.5t226 -544t-226 -542.5t-543.5 -225t-543 225t-225.5 542.5zM172 751.5q0 -266.5 191.5 -458t457.5 -191.5t459 191.5t193 458.5q0 268 -191.5 459.5t-460.5 191.5q-266 0 -457.5 -192.5t-191.5 -459zM625 313v879h196 q231 0 232 -258q0 -76 -16.5 -125t-71.5 -96l106 -400h-151l-95 365h-55v-365h-145zM770 805h45q43 0 65.5 21.5t27.5 45t5 60.5q0 39 -5 63.5t-27.5 46t-65.5 21.5h-45v-258z" />
<glyph unicode="&#xaf;" horiz-adv-x="1024" d="M313 1315v162h398v-162h-398z" />
<glyph unicode="&#xb4;" horiz-adv-x="1024" d="M410 1305l106 184h215l-162 -184h-159z" />
<glyph unicode="&#xb7;" horiz-adv-x="215" d="M0 649v228h215v-228h-215z" />
<glyph unicode="&#xb8;" horiz-adv-x="1024" d="M426 -111h172v-141l-45 -133h-104l40 133h-63v141z" />
<glyph unicode="&#xbf;" horiz-adv-x="645" d="M41 -106q0 82 80 219l57 95q18 32 42 106.5t24 144.5v256h190v-256q0 -102 -24.5 -195.5t-48 -140.5t-64.5 -117q-43 -72 -53 -112q-6 -27 11 -61t56 -34q47 -2 82 47.5t49 98.5l179 -84q-12 -33 -34 -69t-60 -82t-96 -75.5t-124 -27.5q-82 2 -138 33.5t-82 82t-36 91.5 t-10 80zM231 893v227h215v-227h-215z" />
<glyph unicode="&#xc0;" horiz-adv-x="765" d="M20 0l228 1505h270l227 -1505h-215l-41 307h-213l-40 -307h-216zM141 1823h215l107 -185h-160zM307 541h152l-64 475l-6 39h-12l-6 -39z" />
<glyph unicode="&#xc1;" horiz-adv-x="765" d="M20 0l228 1505h270l227 -1505h-215l-41 307h-213l-40 -307h-216zM293 1638l106 185h215l-161 -185h-160zM307 541h152l-64 475l-6 39h-12l-6 -39z" />
<glyph unicode="&#xc2;" horiz-adv-x="765" d="M20 0l228 1505h270l227 -1505h-215l-41 307h-213l-40 -307h-216zM133 1638l141 185h220l141 -185h-189l-63 72l-61 -72h-189zM307 541h152l-64 475l-6 39h-12l-6 -39z" />
<glyph unicode="&#xc3;" horiz-adv-x="765" d="M20 0l228 1505h270l227 -1505h-215l-41 307h-213l-40 -307h-216zM184 1632v152q49 39 109 39q33 0 91 -18.5t89 -20.5q25 0 52.5 8t41.5 16l15 9v-152q-51 -39 -109 -39q-31 0 -89 19.5t-91 19.5q-25 0 -52.5 -8t-41.5 -17zM307 541h152l-64 475l-6 39h-12l-6 -39z" />
<glyph unicode="&#xc4;" horiz-adv-x="765" d="M20 0l228 1505h270l227 -1505h-215l-41 307h-213l-40 -307h-216zM143 1638v201h191v-201h-191zM307 541h152l-64 475l-6 39h-12l-6 -39zM432 1638v201h191v-201h-191z" />
<glyph unicode="&#xc5;" horiz-adv-x="765" d="M20 0l228 1505h270l227 -1505h-215l-41 307h-213l-40 -307h-216zM231 1761.5q0 61.5 45.5 102.5t109 41t107.5 -41t44 -102.5t-44 -102.5t-107.5 -41t-109 41t-45.5 102.5zM307 541h152l-64 475l-6 39h-12l-6 -39zM309 1761.5q0 -28.5 23.5 -50t52.5 -21.5t52.5 21.5 t23.5 50t-23.5 50t-52.5 21.5t-52.5 -21.5t-23.5 -50z" />
<glyph unicode="&#xc6;" horiz-adv-x="1099" d="M16 0l420 1505h623v-227h-285v-395h205v-242h-205v-414h285v-227h-506v307h-227l-90 -307h-220zM393 541h160v514h-10z" />
<glyph unicode="&#xc7;" horiz-adv-x="708" d="M68 309v887q0 12 2 34.5t17 79t43 99.5t88.5 78t144 35t144 -34t88.5 -81t43 -95t17 -83l2 -33v-207h-206v207q-2 0 0 11.5t-3.5 27.5t-12.5 32.5t-24.5 28t-43.5 11.5q-35 0 -54.5 -28t-21.5 -54l-2 -29v-887q0 -12 2 -30.5t21.5 -49t54.5 -30.5q41 0 62.5 27.5 t21.5 56.5v26v207h206v-207q0 -12 -2 -34.5t-17 -79t-43 -99.5t-88.5 -77.5t-144 -34.5t-144 33.5t-88.5 80.5t-43 95.5t-17 80.5zM268 -111v-141h64l-41 -133h104l45 133v141h-172z" />
<glyph unicode="&#xc8;" horiz-adv-x="628" d="M82 0v1505h506v-227h-285v-395h205v-242h-205v-414h285v-227h-506zM111 1823h215l106 -185h-160z" />
<glyph unicode="&#xc9;" horiz-adv-x="628" d="M82 0v1505h506v-227h-285v-395h205v-242h-205v-414h285v-227h-506zM236 1638l106 185h215l-162 -185h-159z" />
<glyph unicode="&#xca;" horiz-adv-x="628" d="M82 0v1505h506v-227h-285v-395h205v-242h-205v-414h285v-227h-506zM84 1638l141 185h219l142 -185h-189l-63 72l-62 -72h-188z" />
<glyph unicode="&#xcb;" horiz-adv-x="628" d="M82 0v1505h506v-227h-285v-395h205v-242h-205v-414h285v-227h-506zM94 1638v201h191v-201h-191zM383 1638v201h190v-201h-190z" />
<glyph unicode="&#xcc;" horiz-adv-x="401" d="M-6 1823h215l106 -185h-159zM98 0v1505h221v-1505h-221z" />
<glyph unicode="&#xcd;" horiz-adv-x="401" d="M82 0v1505h221v-1505h-221zM86 1638l107 185h215l-162 -185h-160z" />
<glyph unicode="&#xce;" horiz-adv-x="370" d="M-66 1638l142 185h219l141 -185h-188l-64 72l-61 -72h-189zM74 0v1505h221v-1505h-221z" />
<glyph unicode="&#xcf;" horiz-adv-x="372" d="M-53 1638v201h190v-201h-190zM76 0v1505h221v-1505h-221zM236 1638v201h190v-201h-190z" />
<glyph unicode="&#xd0;" horiz-adv-x="761" d="M20 655v228h62v622h174q90 0 153.5 -12t112.5 -33.5t80 -67.5t50.5 -95.5t28.5 -139.5t12 -177t3 -228.5t-3 -228.5t-12 -176t-28.5 -138t-50.5 -95t-80 -67.5t-112.5 -34t-153.5 -12.5h-174v655h-62zM303 221q94 0 123 41q39 55 41 320v172q2 377 -25 454q-23 66 -92 74 q-18 2 -47 2v-401h84v-228h-84v-434z" />
<glyph unicode="&#xd1;" horiz-adv-x="808" d="M82 0v1505h197l215 -784l18 -70h12v70v784h203v-1505h-197l-215 784l-18 70h-12v-70v-784h-203zM207 1632v152q49 39 108 39q33 0 91.5 -18.5t89.5 -20.5q25 0 52 8t42 16l14 9v-152q-51 -39 -108 -39q-31 0 -89.5 19.5t-91.5 19.5q-25 0 -52 -8t-42 -17z" />
<glyph unicode="&#xd2;" d="M68 309v887q0 12 2 34.5t17 79t43 99.5t88.5 78t144 35t144 -34t88.5 -81t43 -95t17 -83l2 -33v-887q0 -12 -2 -34.5t-17 -79t-43 -99.5t-88.5 -77.5t-144 -34.5t-144 33.5t-88.5 80.5t-43 95.5t-17 80.5zM121 1823h215l106 -185h-159zM289 309q0 -12 1 -30.5t19.5 -49 t53 -30.5t53 27.5t18.5 56.5l2 26v887q0 12 -1 30.5t-19.5 49.5t-53 31t-53 -28t-18.5 -54l-2 -29v-887z" />
<glyph unicode="&#xd3;" d="M68 309v887q0 12 2 34.5t17 79t43 99.5t88.5 78t144 35t144 -34t88.5 -81t43 -95t17 -83l2 -33v-887q0 -12 -2 -34.5t-17 -79t-43 -99.5t-88.5 -77.5t-144 -34.5t-144 33.5t-88.5 80.5t-43 95.5t-17 80.5zM285 1638l106 185h215l-162 -185h-159zM289 309q0 -12 1 -30.5 t19.5 -49t53 -30.5t53 27.5t18.5 56.5l2 26v887q0 12 -1 30.5t-19.5 49.5t-53 31t-53 -28t-18.5 -54l-2 -29v-887z" />
<glyph unicode="&#xd4;" d="M68 309v887q0 12 2 34.5t17 79t43 99.5t88.5 78t144 35t144 -34t88.5 -81t43 -95t17 -83l2 -33v-887q0 -12 -2 -34.5t-17 -79t-43 -99.5t-88.5 -77.5t-144 -34.5t-144 33.5t-88.5 80.5t-43 95.5t-17 80.5zM113 1638l141 185h219l141 -185h-188l-64 72l-61 -72h-188z M289 309q0 -12 1 -30.5t19.5 -49t53 -30.5t53 27.5t18.5 56.5l2 26v887q0 12 -1 30.5t-19.5 49.5t-53 31t-53 -28t-18.5 -54l-2 -29v-887z" />
<glyph unicode="&#xd5;" d="M68 309v887q0 12 2 34.5t17 79t43 99.5t88.5 78t144 35t144 -34t88.5 -81t43 -95t17 -83l2 -33v-887q0 -12 -2 -34.5t-17 -79t-43 -99.5t-88.5 -77.5t-144 -34.5t-144 33.5t-88.5 80.5t-43 95.5t-17 80.5zM164 1632v152q49 39 108 39q33 0 91.5 -18.5t89.5 -20.5 q25 0 52 8t42 16l14 9v-152q-51 -39 -108 -39q-31 0 -89.5 19.5t-91.5 19.5q-25 0 -52 -8t-42 -17zM289 309q0 -12 1 -30.5t19.5 -49t53 -30.5t53 27.5t18.5 56.5l2 26v887q0 12 -1 30.5t-19.5 49.5t-53 31t-53 -28t-18.5 -54l-2 -29v-887z" />
<glyph unicode="&#xd6;" d="M68 309v887q0 12 2 34.5t17 79t43 99.5t88.5 78t144 35t144 -34t88.5 -81t43 -95t17 -83l2 -33v-887q0 -12 -2 -34.5t-17 -79t-43 -99.5t-88.5 -77.5t-144 -34.5t-144 33.5t-88.5 80.5t-43 95.5t-17 80.5zM123 1638v201h190v-201h-190zM289 309q0 -12 1 -30.5t19.5 -49 t53 -30.5t53 27.5t18.5 56.5l2 26v887q0 12 -1 30.5t-19.5 49.5t-53 31t-53 -28t-18.5 -54l-2 -29v-887zM412 1638v201h190v-201h-190z" />
<glyph unicode="&#xd8;" d="M59 -20l47 157q-18 37 -27 80t-9 68l-2 24v887q0 12 2 34.5t17 79t43 99.5t88.5 78t143.5 35q92 0 158 -43l15 47h122l-45 -150q20 -39 31.5 -84t11.5 -71l2 -25v-887q0 -12 -2 -34.5t-17 -79t-43 -99.5t-88.5 -77.5t-144.5 -34.5q-96 0 -159 43l-15 -47h-129zM289 309 q0 -12 1 -30.5t19.5 -49t53 -30.5t53 27.5t18.5 56.5l2 26v488zM289 727l147 479q-8 100 -74 101q-35 0 -53 -28t-18 -54l-2 -29v-469z" />
<glyph unicode="&#xd9;" horiz-adv-x="749" d="M80 309q0 -12 2 -34.5t17.5 -79t43 -99.5t88 -77.5t144.5 -34.5t144.5 33.5t88 80.5t43 95.5t17.5 80.5l2 35v1196h-221v-1196q0 -12 -1.5 -30.5t-19.5 -49t-53 -30.5t-53.5 27.5t-18.5 56.5l-2 26v1196h-221v-1196zM145 1823h215l107 -185h-160z" />
<glyph unicode="&#xda;" horiz-adv-x="749" d="M80 309q0 -12 2 -34.5t17.5 -79t43 -99.5t88 -77.5t144.5 -34.5t144.5 33.5t88 80.5t43 95.5t17.5 80.5l2 35v1196h-221v-1196q0 -12 -1.5 -30.5t-19.5 -49t-53 -30.5t-53.5 27.5t-18.5 56.5l-2 26v1196h-221v-1196zM307 1638l107 185h215l-162 -185h-160z" />
<glyph unicode="&#xdb;" horiz-adv-x="749" d="M80 309q0 -12 2 -34.5t17.5 -79t43 -99.5t88 -77.5t144.5 -34.5t144.5 33.5t88 80.5t43 95.5t17.5 80.5l2 35v1196h-221v-1196q0 -12 -1.5 -30.5t-19.5 -49t-53 -30.5t-53.5 27.5t-18.5 56.5l-2 26v1196h-221v-1196zM125 1638l141 185h219l142 -185h-189l-63 72l-62 -72 h-188z" />
<glyph unicode="&#xdc;" horiz-adv-x="749" d="M80 309v1196h221v-1196q0 -12 1 -30.5t19.5 -49t53.5 -30.5t53 27.5t18 56.5l3 26v1196h221v-1196q0 -12 -2 -34.5t-17.5 -79t-43 -99.5t-88 -77.5t-144.5 -34.5t-144.5 33.5t-88 80.5t-43 95.5t-17.5 80.5zM135 1638v201h191v-201h-191zM424 1638v201h190v-201h-190z " />
<glyph unicode="&#xdd;" horiz-adv-x="704" d="M16 1505l226 -864v-641h221v641l225 864h-217l-111 -481l-6 -14h-4l-6 14l-111 481h-217zM254 1638l106 185h215l-161 -185h-160z" />
<glyph unicode="&#xde;" d="M82 0v1505h219v-241h2q166 0 277.5 -105.5t111.5 -345.5t-111.5 -346.5t-277.5 -106.5v-360h-221zM303 586q102 0 134 45t32 174q0 131 -33 182t-133 51v-452z" />
<glyph unicode="&#xdf;" horiz-adv-x="733" d="M66 0v1235q0 123 70.5 205t209.5 82q133 0 201.5 -81t68.5 -204q0 -109 -88 -174q152 -88 152 -488q0 -182 -20.5 -298.5t-66.5 -176t-102.5 -80t-144.5 -20.5v193q45 0 70.5 25.5t41 111.5t15.5 245q0 170 -15.5 259.5t-41 117t-70.5 27.5v141q35 0 60.5 33t25.5 84 q0 45 -21.5 72.5t-64.5 27.5q-74 0 -74 -102v-1235h-206z" />
<glyph unicode="&#xe0;" horiz-adv-x="681" d="M49 260q0 106 34 187t83 124t98 73t88 50.5t43 36.5v37v86q0 102 -57 102q-20 0 -32.5 -9t-17.5 -32.5t-7 -37t-2 -47.5v-39h-207v47q0 123 80.5 211t197.5 88q102 0 177 -74t75 -180v-351v-337q0 -109 14 -195h-202q-18 20 -19 90h-14q-20 -37 -65.5 -71.5t-100.5 -34.5 q-59 0 -112.5 60t-53.5 216zM102 1489h215l107 -184h-160zM252 291q0 -104 57 -105q35 0 60.5 19.5t25.5 48.5v287q-143 -62 -143 -250z" />
<glyph unicode="&#xe1;" horiz-adv-x="681" d="M49 260q0 106 34 187t83 124t98 73t88 50.5t43 36.5v37v86q0 102 -57 102q-20 0 -32.5 -9t-17.5 -32.5t-7 -37t-2 -47.5v-39h-207v47q0 123 80.5 211t197.5 88q102 0 177 -74t75 -180v-351v-337q0 -109 14 -195h-202q-18 20 -19 90h-14q-20 -37 -65.5 -71.5t-100.5 -34.5 q-59 0 -112.5 60t-53.5 216zM252 291q0 -104 57 -105q35 0 60.5 19.5t25.5 48.5v287q-143 -62 -143 -250zM264 1305l107 184h215l-162 -184h-160z" />
<glyph unicode="&#xe2;" horiz-adv-x="681" d="M49 260q0 106 34 187t83 124t98 73t88 50.5t43 36.5v37v86q0 102 -57 102q-20 0 -32.5 -9t-17.5 -32.5t-7 -37t-2 -47.5v-39h-207v47q0 123 80.5 211t197.5 88q102 0 177 -74t75 -180v-351v-337q0 -109 14 -195h-202q-18 20 -19 90h-14q-20 -37 -65.5 -71.5t-100.5 -34.5 q-59 0 -112.5 60t-53.5 216zM90 1305l141 184h220l141 -184h-189l-63 71l-61 -71h-189zM252 291q0 -104 57 -105q35 0 60.5 19.5t25.5 48.5v287q-143 -62 -143 -250z" />
<glyph unicode="&#xe3;" horiz-adv-x="681" d="M49 260q0 106 34 187t83 124t98 73t88 50.5t43 36.5v37v86q0 102 -57 102q-20 0 -32.5 -9t-17.5 -32.5t-7 -37t-2 -47.5v-39h-207v47q0 123 80.5 211t197.5 88q102 0 177 -74t75 -180v-351v-337q0 -109 14 -195h-202q-18 20 -19 90h-14q-20 -37 -65.5 -71.5t-100.5 -34.5 q-59 0 -112.5 60t-53.5 216zM143 1305v151q49 39 109 39q33 0 91 -18.5t89 -20.5q25 0 52.5 8.5t41.5 16.5l15 8v-152q-51 -39 -109 -39q-31 0 -89 19.5t-91 19.5q-25 0 -52.5 -8t-41.5 -16zM252 291q0 -104 57 -105q35 0 60.5 19.5t25.5 48.5v287q-143 -62 -143 -250z" />
<glyph unicode="&#xe4;" horiz-adv-x="681" d="M49 260q0 106 34 187t83 124t98 73t88 50.5t43 36.5v37v86q0 102 -57 102q-20 0 -32.5 -9t-17.5 -32.5t-7 -37t-2 -47.5v-39h-207v47q0 123 80.5 211t197.5 88q102 0 177 -74t75 -180v-351v-337q0 -109 14 -195h-202q-18 20 -19 90h-14q-20 -37 -65.5 -71.5t-100.5 -34.5 q-59 0 -112.5 60t-53.5 216zM102 1305v200h191v-200h-191zM252 291q0 -104 57 -105q35 0 60.5 19.5t25.5 48.5v287q-143 -62 -143 -250zM391 1305v200h191v-200h-191z" />
<glyph unicode="&#xe5;" horiz-adv-x="681" d="M49 260q0 106 34 187t83 124t98 73t88 50.5t43 36.5v37v86q0 102 -57 102q-20 0 -32.5 -9t-17.5 -32.5t-7 -37t-2 -47.5v-39h-207v47q0 123 80.5 211t197.5 88q102 0 177 -74t75 -180v-351v-337q0 -109 14 -195h-202q-18 20 -19 90h-14q-20 -37 -65.5 -71.5t-100.5 -34.5 q-59 0 -112.5 60t-53.5 216zM188 1421.5q0 61.5 45.5 102.5t109 41t107.5 -41t44 -102.5t-44 -102.5t-107.5 -41t-109 41t-45.5 102.5zM252 291q0 -104 57 -105q35 0 60.5 19.5t25.5 48.5v287q-143 -62 -143 -250zM266 1421.5q0 -28.5 23.5 -50t52.5 -21.5t52.5 21.5 t23.5 50t-23.5 50t-52.5 21.5t-52.5 -21.5t-23.5 -50z" />
<glyph unicode="&#xe6;" horiz-adv-x="989" d="M49 260q0 106 34 187t83 124t98 73t88 50.5t43 36.5v123q0 102 -57 102q-20 0 -32.5 -9t-17.5 -32.5t-7 -37t-2 -47.5v-39h-207v47q0 123 80.5 211t197.5 88q84 0 152 -52q66 51 162 52q76 0 130 -30t79.5 -73t40 -85t16.5 -72v-29v-326h-342v-243v-13q0 -8 4 -27.5 t11 -34t23.5 -26.5t37.5 -12q35 0 53 27.5t20 56.5v29v122h193v-129q0 -12 -2 -31.5t-16.5 -68.5t-39 -88t-80 -69.5t-130.5 -30.5q-158 0 -226 131q-102 -131 -221 -131q-59 0 -112.5 60t-53.5 216zM252 291q0 -104 57 -105q35 0 60.5 19.5t25.5 48.5v287 q-143 -62 -143 -250zM588 684h149v158q0 12 -1 31.5t-19.5 51t-52.5 31.5q-33 0 -52.5 -28.5t-21.5 -57.5l-2 -28v-158z" />
<glyph unicode="&#xe7;" horiz-adv-x="645" d="M66 315v490q0 332 264 332q137 0 201.5 -71t64.5 -251v-88h-207v135q0 51 -12 70.5t-47 19.5q-57 0 -58 -90v-604q0 -90 58 -90q35 0 47 19.5t12 70.5v156h207v-109q0 -180 -64.5 -250.5t-201.5 -70.5q-264 -1 -264 331zM238 -111v-141h63l-41 -133h105l45 133v141h-172z " />
<glyph unicode="&#xe8;" horiz-adv-x="659" d="M66 279v563q0 12 2 31.5t16 70.5t40 90t81 71t129 32q76 0 130 -30t79.5 -73t40 -85t14.5 -72l2 -29v-326h-342v-243v-13q0 -8 4 -27.5t11.5 -34t23.5 -26.5t37 -12q35 0 53.5 27.5t18.5 56.5l2 29v122h192v-129q0 -12 -2 -31.5t-16.5 -68.5t-39 -88t-79.5 -69.5 t-131 -30.5q-74 0 -129.5 30.5t-80 73.5t-38.5 86t-16 74zM102 1489h215l107 -184h-160zM258 684h150v158q0 12 -1 31.5t-19.5 51t-53.5 31.5q-33 0 -52.5 -28.5t-21.5 -57.5l-2 -28v-158z" />
<glyph unicode="&#xe9;" horiz-adv-x="659" d="M66 279v563q0 12 2 31.5t16 70.5t40 90t81 71t129 32q76 0 130 -30t79.5 -73t40 -85t14.5 -72l2 -29v-326h-342v-243v-13q0 -8 4 -27.5t11.5 -34t23.5 -26.5t37 -12q35 0 53.5 27.5t18.5 56.5l2 29v122h192v-129q0 -12 -2 -31.5t-16.5 -68.5t-39 -88t-79.5 -69.5 t-131 -30.5q-74 0 -129.5 30.5t-80 73.5t-38.5 86t-16 74zM258 684h150v158q0 12 -1 31.5t-19.5 51t-53.5 31.5q-33 0 -52.5 -28.5t-21.5 -57.5l-2 -28v-158zM264 1305l107 184h215l-162 -184h-160z" />
<glyph unicode="&#xea;" horiz-adv-x="659" d="M66 279v563q0 12 2 31.5t16 70.5t40 90t81 71t129 32q76 0 130 -30t79.5 -73t40 -85t14.5 -72l2 -29v-326h-342v-243v-13q0 -8 4 -27.5t11.5 -34t23.5 -26.5t37 -12q35 0 53.5 27.5t18.5 56.5l2 29v122h192v-129q0 -12 -2 -31.5t-16.5 -68.5t-39 -88t-79.5 -69.5 t-131 -30.5q-74 0 -129.5 30.5t-80 73.5t-38.5 86t-16 74zM80 1305l141 184h219l142 -184h-189l-63 71l-62 -71h-188zM258 684h150v158q0 12 -1 31.5t-19.5 51t-53.5 31.5q-33 0 -52.5 -28.5t-21.5 -57.5l-2 -28v-158z" />
<glyph unicode="&#xeb;" horiz-adv-x="659" d="M66 279v563q0 12 2 31.5t16 70.5t40 90t81 71t129 32q76 0 130 -30t79.5 -73t40 -85t14.5 -72l2 -29v-326h-342v-243v-13q0 -8 4 -27.5t11.5 -34t23.5 -26.5t37 -12q35 0 53.5 27.5t18.5 56.5l2 29v122h192v-129q0 -12 -2 -31.5t-16.5 -68.5t-39 -88t-79.5 -69.5 t-131 -30.5q-74 0 -129.5 30.5t-80 73.5t-38.5 86t-16 74zM90 1305v200h191v-200h-191zM258 684h150v158q0 12 -1 31.5t-19.5 51t-53.5 31.5q-33 0 -52.5 -28.5t-21.5 -57.5l-2 -28v-158zM379 1305v200h190v-200h-190z" />
<glyph unicode="&#xec;" horiz-adv-x="370" d="M-33 1489h215l107 -184h-160zM82 0h207v1120h-207v-1120z" />
<glyph unicode="&#xed;" horiz-adv-x="370" d="M82 0h207v1120h-207v-1120zM82 1305l106 184h215l-161 -184h-160z" />
<glyph unicode="&#xee;" horiz-adv-x="370" d="M-66 1305l142 184h219l141 -184h-188l-64 71l-61 -71h-189zM82 0h207v1120h-207v-1120z" />
<glyph unicode="&#xef;" horiz-adv-x="372" d="M-53 1305v200h190v-200h-190zM82 0v1120h207v-1120h-207zM236 1305v200h190v-200h-190z" />
<glyph unicode="&#xf0;" horiz-adv-x="673" d="M76 279v579q0 279 172 279q63 0 155 -78q-12 109 -51 203l-82 -72l-55 63l100 88l-45 66l109 100q25 -27 53 -61l94 82l56 -66l-101 -88q125 -201 125 -446v-656q0 -12 -1 -31.5t-15.5 -68.5t-40 -88t-79.5 -69.5t-130 -30.5q-74 0 -129 30.5t-80 73.5t-39 86t-14 74z M270 267.5q-2 -11.5 2 -29t10.5 -34t21.5 -27.5t36 -11q35 0 52.5 27.5t17.5 56.5l2 29v563q-2 0 0 11t-2 28.5t-10.5 34t-22 28.5t-37.5 12q-33 0 -50.5 -28.5t-19.5 -57.5v-28v-563q2 0 0 -11.5z" />
<glyph unicode="&#xf1;" horiz-adv-x="690" d="M82 0v1120h207v-94l32 32q30 30 66.5 54.5t69.5 24.5q76 0 115.5 -69t39.5 -150v-918h-206v887q0 49 -50 49q-18 0 -34.5 -13.5t-24.5 -25.5l-8 -14v-883h-207zM147 1305v151q49 39 109 39q33 0 91.5 -18.5t88.5 -20.5q25 0 52.5 8.5t41.5 16.5l15 8v-152 q-51 -39 -109 -39q-31 0 -89 19.5t-91 19.5q-25 0 -52.5 -8t-41.5 -16z" />
<glyph unicode="&#xf2;" horiz-adv-x="657" d="M63 279v563q0 12 1.5 31.5t15.5 70.5t38.5 90t80 71t129.5 32q76 0 130 -30t79.5 -73t40 -85t16.5 -72v-29v-576q0 -12 -1 -31.5t-15.5 -68.5t-40 -88t-80 -69.5t-129.5 -30.5q-74 0 -129.5 30.5t-80 73.5t-38.5 86t-14 74zM98 1489h215l107 -184h-160zM258 267.5 q-2 -11.5 2 -29t10 -34t21.5 -27.5t36.5 -11q35 0 52 27.5t17 56.5l2 29v563q-2 0 0 11t-2 28.5t-10 34t-21.5 28.5t-37.5 12q-33 0 -50.5 -28.5t-19.5 -57.5v-28v-563q2 0 0 -11.5z" />
<glyph unicode="&#xf3;" horiz-adv-x="657" d="M63 279v563q0 12 1.5 31.5t15.5 70.5t38.5 90t80 71t129.5 32q76 0 130 -30t79.5 -73t40 -85t16.5 -72v-29v-576q0 -12 -1 -31.5t-15.5 -68.5t-40 -88t-80 -69.5t-129.5 -30.5q-74 0 -129.5 30.5t-80 73.5t-38.5 86t-14 74zM258 267.5q-2 -11.5 2 -29t10 -34t21.5 -27.5 t36.5 -11q35 0 52 27.5t17 56.5l2 29v563q-2 0 0 11t-2 28.5t-10 34t-21.5 28.5t-37.5 12q-33 0 -50.5 -28.5t-19.5 -57.5v-28v-563q2 0 0 -11.5zM260 1305l107 184h215l-162 -184h-160z" />
<glyph unicode="&#xf4;" horiz-adv-x="657" d="M63 279v563q0 12 1.5 31.5t15.5 70.5t38.5 90t80 71t129.5 32q76 0 130 -30t79.5 -73t40 -85t16.5 -72v-29v-576q0 -12 -1 -31.5t-15.5 -68.5t-40 -88t-80 -69.5t-129.5 -30.5q-74 0 -129.5 30.5t-80 73.5t-38.5 86t-14 74zM78 1305l141 184h219l142 -184h-189l-63 71 l-62 -71h-188zM258 267.5q-2 -11.5 2 -29t10 -34t21.5 -27.5t36.5 -11q35 0 52 27.5t17 56.5l2 29v563q-2 0 0 11t-2 28.5t-10 34t-21.5 28.5t-37.5 12q-33 0 -50.5 -28.5t-19.5 -57.5v-28v-563q2 0 0 -11.5z" />
<glyph unicode="&#xf5;" horiz-adv-x="657" d="M63 279v563q0 12 1.5 31.5t15.5 70.5t38.5 90t80 71t129.5 32q76 0 130 -30t79.5 -73t40 -85t16.5 -72v-29v-576q0 -12 -1 -31.5t-15.5 -68.5t-40 -88t-80 -69.5t-129.5 -30.5q-74 0 -129.5 30.5t-80 73.5t-38.5 86t-14 74zM131 1305v151q49 39 109 39q33 0 91 -18.5 t89 -20.5q25 0 52.5 8.5t41.5 16.5l14 8v-152q-51 -39 -108 -39q-31 0 -89.5 19.5t-90.5 19.5q-25 0 -52.5 -8t-42.5 -16zM258 267.5q-2 -11.5 2 -29t10 -34t21.5 -27.5t36.5 -11q35 0 52 27.5t17 56.5l2 29v563q-2 0 0 11t-2 28.5t-10 34t-21.5 28.5t-37.5 12 q-33 0 -50.5 -28.5t-19.5 -57.5v-28v-563q2 0 0 -11.5z" />
<glyph unicode="&#xf6;" horiz-adv-x="657" d="M63 279v563q0 12 1.5 31.5t15.5 70.5t38.5 90t80 71t129.5 32q76 0 130 -30t79.5 -73t40 -85t16.5 -72v-29v-576q0 -12 -1 -31.5t-15.5 -68.5t-40 -88t-80 -69.5t-129.5 -30.5q-74 0 -129.5 30.5t-80 73.5t-38.5 86t-14 74zM90 1305v200h191v-200h-191zM258 267.5 q-2 -11.5 2 -29t10 -34t21.5 -27.5t36.5 -11q35 0 52 27.5t17 56.5l2 29v563q-2 0 0 11t-2 28.5t-10 34t-21.5 28.5t-37.5 12q-33 0 -50.5 -28.5t-19.5 -57.5v-28v-563q2 0 0 -11.5zM379 1305v200h190v-200h-190z" />
<glyph unicode="&#xf8;" horiz-adv-x="657" d="M63 279v563q0 12 1.5 31.5t15.5 70.5t38.5 90t80 71t129.5 32q51 0 106 -19l21 80h75l-30 -121q41 -37 64.5 -94t25.5 -96l4 -39v-576q0 -12 -1 -31.5t-15.5 -68.5t-40 -88t-80 -69.5t-129.5 -30.5q-57 0 -103 16l-20 -78h-80l31 121q-41 39 -64.5 97.5t-25.5 97.5z M258 436l125 486q-18 35 -55 34q-33 0 -50.5 -28.5t-19.5 -57.5v-28v-406zM274 197q16 -31 54 -31q35 0 52 27.5t17 56.5l2 29v403z" />
<glyph unicode="&#xf9;" horiz-adv-x="690" d="M78 203v917h207v-887q0 -49 49 -49q18 0 34.5 13.5t24.5 27.5l8 13v882h207v-1120h-207v94l-31 -32q-30 -30 -67 -54t-70 -24q-76 0 -115.5 68.5t-39.5 150.5zM113 1489h215l106 -184h-160z" />
<glyph unicode="&#xfa;" horiz-adv-x="690" d="M78 203v917h207v-887q0 -49 49 -49q18 0 34.5 13.5t24.5 27.5l8 13v882h207v-1120h-207v94l-31 -32q-30 -30 -67 -54t-70 -24q-76 0 -115.5 68.5t-39.5 150.5zM274 1305l107 184h215l-162 -184h-160z" />
<glyph unicode="&#xfb;" horiz-adv-x="690" d="M78 203v917h207v-887q0 -49 49 -49q18 0 34.5 13.5t24.5 27.5l8 13v882h207v-1120h-207v94l-31 -32q-30 -30 -67 -54t-70 -24q-76 0 -115.5 68.5t-39.5 150.5zM94 1305l142 184h219l141 -184h-188l-64 71l-61 -71h-189z" />
<glyph unicode="&#xfc;" horiz-adv-x="690" d="M78 203v917h207v-887q0 -49 49 -49q18 0 34.5 13.5t24.5 27.5l8 13v882h207v-1120h-207v94l-31 -32q-30 -30 -67 -54t-70 -24q-76 0 -115.5 68.5t-39.5 150.5zM106 1305v200h191v-200h-191zM395 1305v200h191v-200h-191z" />
<glyph unicode="&#xfd;" horiz-adv-x="634" d="M25 1120l190 -1153q0 -68 -36 -123t-97 -61l-49 4v-184q70 -4 92 -4q115 0 192.5 95t94.5 222l198 1204h-202l-82 -688l-4 -57h-9l-4 57l-82 688h-202zM231 1305l107 184h215l-162 -184h-160z" />
<glyph unicode="&#xfe;" horiz-adv-x="686" d="M82 -385v1890h207v-458q88 90 164 90q78 0 118.5 -69t40.5 -150v-715q0 -82 -41 -150.5t-118 -68.5q-33 0 -74 22.5t-66 44.5l-24 23v-459h-207zM289 246q0 -25 19.5 -46.5t42 -21.5t39 19.5t16.5 48.5v628q0 29 -16.5 48.5t-39 19.5t-42 -19.5t-19.5 -48.5v-628z" />
<glyph unicode="&#xff;" horiz-adv-x="634" d="M25 1120h202l82 -688l4 -57h9l4 57l82 688h202l-198 -1204q-16 -127 -94 -222t-193 -95l-92 4v184q16 -4 49 -4q61 6 97 61.5t36 122.5zM78 1305v200h190v-200h-190zM367 1305v200h190v-200h-190z" />
<glyph unicode="&#x131;" horiz-adv-x="370" d="M82 0v1120h207v-1120h-207z" />
<glyph unicode="&#x141;" horiz-adv-x="628" d="M41 561v221l65 52v671h222v-499l121 94v-221l-121 -95v-579h293v-205h-515v612z" />
<glyph unicode="&#x142;" horiz-adv-x="468" d="M31 561v221l100 78v645h207v-483l100 78v-221l-100 -78v-801h-207v639z" />
<glyph unicode="&#x152;" horiz-adv-x="983" d="M68 309v887q0 12 2 33.5t17 75t43 93.5t88.5 73.5t143.5 33.5h580v-227h-285v-395h205v-242h-205v-414h285v-227h-580q-84 0 -144 31.5t-88 77t-43 91.5t-17 79zM289 309q0 -12 1 -30.5t19.5 -49t53 -30.5t53 27.5t18.5 56.5l2 26v901q-6 96 -74 97q-35 0 -53 -28 t-18 -54l-2 -29v-887z" />
<glyph unicode="&#x153;" horiz-adv-x="995" d="M63 279v563q0 12 1.5 31.5t15.5 70.5t38.5 90t80 71t129.5 32q106 0 172 -60q66 59 170 60q76 0 130 -30t79.5 -73t40 -85t14.5 -72l2 -29v-326h-342v-250q0 -16 4 -36.5t22.5 -45t49.5 -24.5q35 0 53 27.5t18 56.5l2 29v122h193v-129q0 -12 -2 -31.5t-16.5 -68.5 t-39 -88t-80 -69.5t-130.5 -30.5q-106 0 -170 57q-68 -57 -170 -57q-74 0 -129.5 30.5t-80 73.5t-38.5 86t-14 74zM258 267.5q-2 -11.5 2 -29t10 -34t21.5 -27.5t36.5 -11q35 0 52 27.5t17 56.5l2 29v563q-2 0 0 11t-2 28.5t-10 34t-21.5 28.5t-37.5 12q-33 0 -50.5 -28.5 t-19.5 -57.5v-28v-563q2 0 0 -11.5zM594 684h149v158q0 12 -1 31.5t-19 51t-53 31.5q-43 0 -59.5 -37.5t-16.5 -70.5v-164z" />
<glyph unicode="&#x160;" horiz-adv-x="702" d="M37 422l217 20q0 -256 104 -256q90 0 91 166q0 29 -8.5 59.5t-32 73.5t-36.5 64l-54 79q-40 58 -48 72q-66 96 -102.5 158t-68 149t-31.5 162q0 139 71.5 245t216.5 108q94 2 160 -35t95.5 -101.5t42 -127t12.5 -136.5l-217 -20q0 217 -89 217q-76 -2 -75 -150 q0 -18 4 -39.5t10 -39t18.5 -43t20.5 -40t28 -43.5l28 -43l33 -48l32 -46l104 -159q31 -49 67 -139.5t36 -166.5q0 -379 -308 -378q-82 0 -142 25.5t-94 63.5t-53.5 99t-25.5 117.5t-6 132.5zM100 1823h189l61 -72l64 72h188l-141 -185h-219z" />
<glyph unicode="&#x161;" horiz-adv-x="630" d="M37 326h192q0 -170 97 -170q72 0 71 135q0 74 -129 198q-68 66 -98.5 99t-64 101.5t-33.5 144.5q0 55 12 104t39 95t78 74t123 30q86 2 142 -26t80.5 -79t33 -95t8.5 -103h-193q0 131 -67 131q-63 -2 -64 -131q0 -33 23.5 -73t45 -62.5t66.5 -65.5q190 -182 191 -342 q0 -123 -64.5 -215t-199.5 -92q-72 0 -126.5 24.5t-85 60t-49 85t-23.5 89.5t-5 83zM66 1489h188l61 -72l64 72h188l-141 -184h-219z" />
<glyph unicode="&#x178;" horiz-adv-x="704" d="M16 1505h217l111 -481l6 -14h4l6 14l111 481h217l-225 -864v-641h-221v641zM113 1638v201h190v-201h-190zM401 1638v201h191v-201h-191z" />
<glyph unicode="&#x17d;" horiz-adv-x="626" d="M20 0v238l347 1048h-297v219h536v-219l-352 -1067h352v-219h-586zM88 1823h188l62 -72l63 72h189l-141 -185h-220z" />
<glyph unicode="&#x17e;" horiz-adv-x="532" d="M12 0v168l285 764h-240v188h459v-168l-285 -764h285v-188h-504zM25 1489h188l61 -72l64 72h188l-141 -184h-219z" />
<glyph unicode="&#x2c6;" horiz-adv-x="1021" d="M260 1305l141 184h220l141 -184h-189l-63 71l-61 -71h-189z" />
<glyph unicode="&#x2c7;" horiz-adv-x="1021" d="M260 1489h189l61 -72l63 72h189l-141 -184h-220z" />
<glyph unicode="&#x2d8;" horiz-adv-x="1024" d="M287 1399l110 94q41 -47 115 -47q35 0 64.5 12t41.5 25l13 10l106 -94l-27 -27q-17 -16 -77 -42.5t-121 -26.5q-63 0 -119.5 24.5t-81.5 48.5z" />
<glyph unicode="&#x2d9;" horiz-adv-x="1021" d="M408 1298v207h206v-207h-206z" />
<glyph unicode="&#x2da;" horiz-adv-x="1021" d="M358 1421.5q0 61.5 45.5 102.5t108.5 41t107.5 -41t44.5 -102.5t-44.5 -102.5t-107.5 -41t-108.5 41t-45.5 102.5zM436 1421.5q0 -28.5 23.5 -50t52.5 -21.5t52.5 21.5t23.5 50t-23.5 50t-52.5 21.5t-52.5 -21.5t-23.5 -50z" />
<glyph unicode="&#x2db;" horiz-adv-x="1024" d="M348 -211q0 51 34 103.5t69 78.5l32 29h99q-10 -8 -25.5 -22.5t-41.5 -59.5t-26 -88q0 -41 31 -59.5t72 -18.5t86 19l-16 -138q-55 -18 -105 -18q-96 0 -152.5 51t-56.5 123z" />
<glyph unicode="&#x2dc;" horiz-adv-x="1024" d="M313 1305v151q49 39 109 39q33 0 91 -18.5t89 -20.5q25 0 52.5 8.5t41.5 16.5l15 8v-152q-51 -39 -109 -39q-31 0 -89 19.5t-91 19.5q-25 0 -52.5 -8t-41.5 -16z" />
<glyph unicode="&#x2dd;" horiz-adv-x="1024" d="M215 1305l107 184h215l-162 -184h-160zM518 1305l107 184h215l-162 -184h-160z" />
<glyph unicode="&#x2000;" horiz-adv-x="952" />
<glyph unicode="&#x2001;" horiz-adv-x="1904" />
<glyph unicode="&#x2002;" horiz-adv-x="952" />
<glyph unicode="&#x2003;" horiz-adv-x="1904" />
<glyph unicode="&#x2004;" horiz-adv-x="634" />
<glyph unicode="&#x2005;" horiz-adv-x="475" />
<glyph unicode="&#x2006;" horiz-adv-x="317" />
<glyph unicode="&#x2007;" horiz-adv-x="317" />
<glyph unicode="&#x2008;" horiz-adv-x="237" />
<glyph unicode="&#x2009;" horiz-adv-x="380" />
<glyph unicode="&#x200a;" horiz-adv-x="104" />
<glyph unicode="&#x2010;" horiz-adv-x="444" d="M74 455v194h297v-194h-297z" />
<glyph unicode="&#x2011;" horiz-adv-x="444" d="M74 455v194h297v-194h-297z" />
<glyph unicode="&#x2012;" horiz-adv-x="444" d="M74 455v194h297v-194h-297z" />
<glyph unicode="&#x2013;" horiz-adv-x="806" d="M74 649v195h659v-195h-659z" />
<glyph unicode="&#x2014;" horiz-adv-x="972" d="M74 649v195h825v-195h-825z" />
<glyph unicode="&#x2018;" horiz-adv-x="309" d="M49 1012v227l113 266h102l-71 -266h71v-227h-215z" />
<glyph unicode="&#x2019;" horiz-adv-x="309" d="M45 1012l72 266h-72v227h215v-227l-113 -266h-102z" />
<glyph unicode="&#x201a;" horiz-adv-x="309" d="M45 0v227h215v-227l-113 -266h-102l72 266h-72z" />
<glyph unicode="&#x201c;" horiz-adv-x="624" d="M53 1012v227l113 266h102l-71 -266h71v-227h-215zM356 1012v227l113 266h102l-71 -266h71v-227h-215z" />
<glyph unicode="&#x201d;" horiz-adv-x="624" d="M53 1012l72 266h-72v227h215v-227l-112 -266h-103zM356 1012l72 266h-72v227h215v-227l-112 -266h-103z" />
<glyph unicode="&#x201e;" horiz-adv-x="624" d="M53 0v227h215v-227l-112 -266h-103l72 266h-72zM356 0v227h215v-227l-112 -266h-103l72 266h-72z" />
<glyph unicode="&#x2022;" horiz-adv-x="663" d="M82 817q0 102 72.5 175t179.5 73q102 0 175 -72.5t73 -175.5q0 -106 -73 -179t-175 -73q-106 0 -179 73t-73 179z" />
<glyph unicode="&#x2026;" horiz-adv-x="964" d="M53 0v227h215v-227h-215zM375 0v227h215v-227h-215zM696 0v227h215v-227h-215z" />
<glyph unicode="&#x202f;" horiz-adv-x="380" />
<glyph unicode="&#x205f;" horiz-adv-x="475" />
<glyph unicode="&#x20ac;" horiz-adv-x="813" d="M53 547v137h107v137h-107v137h107v238q0 12 2 34.5t17.5 79t43 99.5t88 78t144.5 35t144 -34t88 -81t43 -95t18 -83l2 -33v-84h-207v84q-2 0 0 11.5t-3 27.5t-12.5 32.5t-25 28t-43.5 11.5q-35 0 -54.5 -28t-21.5 -54l-2 -29v-238h233v-137h-233v-137h233v-137h-233v-238 q0 -12 2 -30.5t21.5 -49t54.5 -30.5q41 0 61.5 27.5t20.5 56.5l2 26v84h207v-84q0 -12 -2.5 -34.5t-17.5 -79t-43 -99.5t-88 -77.5t-144 -34.5t-144.5 33.5t-88 80.5t-43 95.5t-17.5 80.5l-2 35v238h-107z" />
<glyph unicode="&#x2122;" horiz-adv-x="937" d="M74 1401v104h321v-104h-104v-580h-113v580h-104zM440 821v684h138l67 -319h6l68 319h137v-684h-104v449l-78 -449h-51l-80 449v-449h-103z" />
<glyph unicode="&#x2212;" horiz-adv-x="776" d="M74 649v172h628v-172h-628z" />
<glyph unicode="&#xe000;" horiz-adv-x="1120" d="M0 1120h1120v-1120h-1120v1120z" />
<glyph unicode="&#xfb01;" horiz-adv-x="772" d="M20 934v186h105v31q0 45 1 69.5t7 77t22.5 84t43 67.5t72.5 53.5t108 17.5q33 0 69.5 -4.5t57.5 -8.5l20 -2v-184q-41 12 -110 12q-31 0 -50.5 -18.5t-25.5 -58t-7 -54t-1 -53.5v-29h358v-1120h-207v934h-151v-934h-207v934h-105z" />
<glyph unicode="&#xfb02;" horiz-adv-x="772" d="M20 934v186h105v31q0 45 1 69.5t7 77t22.5 84t43 67.5t72.5 53.5t108 17.5q33 0 69.5 -4.5t57.5 -8.5l20 -2h164v-1505h-207v1329q-37 4 -67.5 4t-50 -18.5t-25.5 -58t-7 -54t-1 -53.5v-29h104v-186h-104v-934h-207v934h-105z" />
</font>
</defs>
</svg>
